Resultater 1 til 18 av 18
Abonnér på denne tråden
  1. #1
    larkus
    Guest

    Enda en versjon av "Made In Japan", og den er gedigen!!!!

    Gedigen utgave av Deep Purple sitt live-album fra 1972 er nettopp gitt ut.
    Navn:      made in japan.jpg
Visninger: 1036
Størrelse: 19.1 Kb

    Og i tillegg utgitt på vinyl over 9 - ni! LP-plater
    Navn:      made in japan002.jpg
Visninger: 1017
Størrelse: 13.6 Kb

  2. #2
    Hifi Freak Bartesam's Avatar
    Ble medlem
    Dec 2002
    Sted
    Hus
    Innlegg
    8,406
    Tagget i
    1 Innlegg
    Klarer meg bra med førstepressen jeg fra 1972
    Bedre å drite i buksa enn å få forstoppelse! Masser av Tandberg 3000 serie, Pioneer SX 1250, Sansui AU 9900, AU11000A og TU 9900, Micro Seiki DD-100, DDX 1000 og DQX 1000, Yamaha YP-D8, Thorens TD 124 MkII, JM Lab Alcor JBL L220. OVK medlem

  3. #3
    Overivrig entusiast
    Ble medlem
    Jun 2006
    Sted
    Nesoddtangen
    Innlegg
    613
    Tagget i
    0 Innlegg
    Jeg har den CD boksen der. Flott sak . Alle tre konsertene som den opprinnelige Made in Japan var satt sammen fra. Litt dumt synes jeg at alle ekstranummerne er samlet på en CD isteden for der hvor de naturlig hører hjemme. På vinylutgaven er dette gjort mer "riktig".

    Har dog ikke hatt tid til å høre på den ennå, så jeg kan ikke si noe om lydkvaliteten i forhold til tidligere utgivelser.

  4. #4
    Hifi Freak
    Ble medlem
    May 2014
    Innlegg
    2,496
    Tagget i
    0 Innlegg
    Det har dessverre kommet tilbakemeldinger fra kjøpere på at lyden er komprimert i hjel og at denne låter svært dårlig. Tror jeg styrer unna.

    Mvh
    Roysen

  5. #5
    Jim.I.Hendriksen
    Guest
    Har også Purple records UK første utgaven samt DCC pressingen. Og for ikke å snakke om denne....kjøpt hos Adrians records på 70 tallet engang og aldri spilt. Hadde 2 så jeg har hørt den...Tror jeg står over boksen selv om det frister med all inserten.


    Navn:      R-3819496-1380882464-2330.jpeg
Visninger: 816
Størrelse: 210.9 Kb

  6. #6
    Overivrig entusiast
    Ble medlem
    Jun 2006
    Sted
    Nesoddtangen
    Innlegg
    613
    Tagget i
    0 Innlegg
    Sitat Sitat fra Roysen Se Innlegg
    Det har dessverre kommet tilbakemeldinger fra kjøpere på at lyden er komprimert i hjel og at denne låter svært dårlig. Tror jeg styrer unna.

    Mvh
    Roysen
    Slik jeg har forstått det gjelder dette først og fremst 2CD versjonen som er remikset av Kevin Shirley ( som vel heller ikke hadde noen stor suksess med Come taste the band). Dvs, Shirley står bak cd1 med selve konserten mens Martin Pullan står bak cd2 med ekstranumrene hvis jeg har forstått det rett. Boksen er remikset og remastret av av Martin Pullan. Han har også gjort det samme med Lp "boksen". Det er også gitt ut en ny enkel cd versjon som skal være remastret, men ikke remikset, av Martin Pullan.

    Jeg har ennå ikke hatt tid til å høre på noen av utgavene selv dessverre.

  7. #7
    Hifi Freak Voff's Avatar
    Ble medlem
    Nov 2006
    Innlegg
    5,357
    Tagget i
    0 Innlegg
    La oss få vite hvordan LP'ene låter. Er på jakt etter "ny" utgave av denne. Har en eldre ikke-remastret CD utgave og den låter tynt. Slett ikke slik jeg husker LP'en fra gamle dager. Da jeg bodde på studendhjem for 30år siden gikk sikringen når bassen på Smoke on the water startet når vi dro litt på...Er knapt bass på CD'en jeg har....

  8. #8
    Hifi Freak E.I.A.'s Avatar
    Ble medlem
    Jul 2004
    Innlegg
    4,567
    Tagget i
    0 Innlegg
    High res utgaven .

    Tracks 1-7 > Remixed & Remastered by Kevin Shirley.
    Tracks 7-14 > Original 1972 Mix, Remastered by Martin Pullen.

    Analyzed: Deep Purple / Made In Japan (Deluxe Edition)
    --------------------------------------------------------------------------------

    DR Peak RMS Duration Track
    --------------------------------------------------------------------------------
    DR8 0.00 dB -8.88 dB 6:41 01-Highway Star (2014 Remaster)
    DR8 0.00 dB -10.63 dB 12:33 02-Child In Time (2014 Remaster)
    DR8 0.00 dB -10.01 dB 7:19 03-Smoke On The Water (2014 Remaster)
    DR8 0.00 dB -10.88 dB 9:28 04-The Mule (2014 Remaster)
    DR8 0.00 dB -9.59 dB 9:52 05-Strange Kind Of Woman (2014 Remaster)
    DR8 0.00 dB -11.16 dB 10:25 06-Lazy (2014 Remaster)
    DR8 0.00 dB -10.84 dB 19:50 07-Space Truckin' (2014 Remaster)
    DR9 -0.86 dB -12.20 dB 6:42 08-Highway Star (Original 1972 Mix)
    DR9 -0.19 dB -12.61 dB 12:17 09-Child In Time (Original 1972 Mix)
    DR8 0.00 dB -9.99 dB 7:36 10-Smoke On The Water (Original 1972 Mix)
    DR9 -0.03 dB -12.13 dB 9:27 11-The Mule (Original 1972 Mix)
    DR9 0.00 dB -11.71 dB 9:52 12-Strange Kind Of Woman (Original 1972 Mix)
    DR10 -0.36 dB -13.99 dB 10:26 13-Lazy (Original 1972 Mix)
    DR8 -0.02 dB -11.51 dB 19:55 14-Space Truckin' (Original 1972 Mix)
    --------------------------------------------------------------------------------

    Number of tracks: 14
    Official DR value: DR8

    Samplerate: 96000 Hz
    Channels: 2
    Bits per sample: 24
    Bitrate: 3132 kbps
    Codec: FLAC
    ================================================== ==============================

  9. #9
    Jim.I.Hendriksen
    Guest
    Håper den er bedre enn Friday Music sin, den er dårlig. Testet forøvrig Japaneren, DCC`en og Purple UK her om dagen. Den japaneren er bra altså, veldig detaljert og med en flott klarhet. Mer attack og friskere enn de andre, DCC`en tyngre og nok litt seigere men avgjort bra, jeg liker bassen på denne. Purple UK en plass i mellom for å si det på en enkel måte. Alle verdt å lete etter. Men best av alt; musikken. Ian Paice pusher folka på en sånn måte at det bare måtte bli bra. Og den soloen til Blackmore på Child in time er noe av det mest energiske som er levert på plate noengang, han spiller utrolig bra her den godeste....

  10. #10
    Jim.I.Hendriksen
    Guest
    Enda en comparison package...DCC, Purple Ger og Japansk. Purple UK var ikke tilstede da bilde ble tatt. Og en safety mastertape. Dere har aldri hørt hvordan Paice sine trommer egentlig høres ut, så mye kan jeg si. Gjelder forøvrig alt det andre også....

    Navn:      dpcp.jpg
Visninger: 523
Størrelse: 148.2 Kb

    Navn:      dpma.jpg
Visninger: 558
Størrelse: 128.8 Kb

    Navn:      dp4t.jpg
Visninger: 551
Størrelse: 108.9 Kb

    Navn:      dptap.jpg
Visninger: 529
Størrelse: 101.8 Kb
    Siste redigert av Jim.I.Hendriksen; 07.04.2015 kl. 21:47.

  11. #11
    Hifi Freak Vintage Silver Pioneer's Avatar
    Ble medlem
    Mar 2012
    Sted
    Laksevåg - Bergen
    Innlegg
    4,086
    Tagget i
    0 Innlegg
    Album
    1
    Har originalen fra 1972. Et par små "party-striper" fra de herlige 70-årene, men den spiller helt greit.
    Pio SA-9800 Amp, Pio SA-9800 Amp m/treverk, Pio SA-720 Amp, Pio SA-608 Amp ,2 stk.Pio TX-9800 Tuner,Pio TX-410L Tuner, Pio SG-9800 Equalizer, Pio SG-540 Equalizer,Pio CT-F950 Casett, Pio CT-320 Casett, Pio PD-30 CD, Pio DT-400 Timer, Pio HPM-1100 Høyttalere, Pio CS-656 Høyttalere, Pio PL-550 Platespiller, van Den Hul d102 Hybrid signalkabler, Monster Gold Plated speaker connectors, Soundcare Superspikes + Litt Tandberg - 2 stk Sølvsuper 11, Spolebånd 3300X, Høyttalere Hi-Fi 20.

  12. #12
    Banned
    Ble medlem
    Apr 2013
    Sted
    Danmark
    Innlegg
    2,237
    Tagget i
    0 Innlegg
    Sitat Sitat fra E.I.A. Se Innlegg
    High res utgaven .

    Tracks 1-7 > Remixed & Remastered by Kevin Shirley.
    Tracks 7-14 > Original 1972 Mix, Remastered by Martin Pullen.

    Analyzed: Deep Purple / Made In Japan (Deluxe Edition)
    --------------------------------------------------------------------------------

    DR Peak RMS Duration Track
    --------------------------------------------------------------------------------
    DR8 0.00 dB -8.88 dB 6:41 01-Highway Star (2014 Remaster)
    DR8 0.00 dB -10.63 dB 12:33 02-Child In Time (2014 Remaster)
    DR8 0.00 dB -10.01 dB 7:19 03-Smoke On The Water (2014 Remaster)
    DR8 0.00 dB -10.88 dB 9:28 04-The Mule (2014 Remaster)
    DR8 0.00 dB -9.59 dB 9:52 05-Strange Kind Of Woman (2014 Remaster)
    DR8 0.00 dB -11.16 dB 10:25 06-Lazy (2014 Remaster)
    DR8 0.00 dB -10.84 dB 19:50 07-Space Truckin' (2014 Remaster)
    DR9 -0.86 dB -12.20 dB 6:42 08-Highway Star (Original 1972 Mix)
    DR9 -0.19 dB -12.61 dB 12:17 09-Child In Time (Original 1972 Mix)
    DR8 0.00 dB -9.99 dB 7:36 10-Smoke On The Water (Original 1972 Mix)
    DR9 -0.03 dB -12.13 dB 9:27 11-The Mule (Original 1972 Mix)
    DR9 0.00 dB -11.71 dB 9:52 12-Strange Kind Of Woman (Original 1972 Mix)
    DR10 -0.36 dB -13.99 dB 10:26 13-Lazy (Original 1972 Mix)
    DR8 -0.02 dB -11.51 dB 19:55 14-Space Truckin' (Original 1972 Mix)
    --------------------------------------------------------------------------------

    Number of tracks: 14
    Official DR value: DR8

    Samplerate: 96000 Hz
    Channels: 2
    Bits per sample: 24
    Bitrate: 3132 kbps
    Codec: FLAC
    ================================================== ==============================
    Kan bidrage med en CD version som er mere original
    foobar2000 1.3.4 / Dynamic Range Meter 1.1.1
    log date: 2015-04-08 08:27:35


    --------------------------------------------------------------------------------
    Analyzed: Deep Purple / Made In Japan - DCC
    --------------------------------------------------------------------------------


    DR Peak RMS Duration Track
    --------------------------------------------------------------------------------
    DR10 -0.43 dB -12.82 dB 6:55 01-Highway Star
    DR10 -0.94 dB -15.32 dB 12:32 02-Child In Time
    DR12 -0.05 dB -14.19 dB 7:34 03-Smoke On The Water
    DR13 -0.32 dB -16.87 dB 9:57 04-The Mule
    DR10 -1.62 dB -14.89 dB 9:55 05-Strange Kind Of Woman
    DR11 -0.94 dB -16.98 dB 10:35 06-Lazy
    DR11 -0.48 dB -14.69 dB 19:59 07-Space Truckin'
    --------------------------------------------------------------------------------


    Number of tracks: 7
    Official DR value: DR11

    Hvis DR værdierne er meget ens og der er kørt helt op til loftet 0 db på alle numre , som man ser i den ene remastrede udgaver så bør klokkerne ringe, det vil sandsynligvis lyde temmelig komprimeret.

    Det sjove/pudsige er at musikken delvis kan genskabes på vinyl ud fra en voldskomprimeret remastret CD version.

    Når der tilføres RIAA og anti RIAA og pladen skæres og afspilles med en slinger grammofon, så kommer lyddiagrammet igen til at ligne musik i stedet for at det virker som der er kørt en grønthøster/græsslåmaskine på toppen af lyddiagram-kurven.

    Det er simpelthen umuligt at få et output fra en vinylplade til at se ud som en CD hvor der påført kraftig komprimering og kørt helt til nul db.

    Vinyl er en mere naturlig form for trykning og afspilning af musik som vil "modsætte" sig en del af de mange muligheder i digital teknikens "vidunderlige" verden, DR værdien kan være 3-4 stykker højre på vinyl udfra den samme hårdt komprimerede CD master.

    Jeg havde en diskussion i et andet forum om dette , men kan desværre ikke finde dokumentationen i øjeblikket.
    Siste redigert av kortvarig; 08.04.2015 kl. 17:55.

  13. #13
    Hifi Freak Vintage Silver Pioneer's Avatar
    Ble medlem
    Mar 2012
    Sted
    Laksevåg - Bergen
    Innlegg
    4,086
    Tagget i
    0 Innlegg
    Album
    1
    Navn:      image.jpg
Visninger: 330
Størrelse: 77.5 KbNavn:      image.jpg
Visninger: 307
Størrelse: 80.1 KbNavn:      image.jpg
Visninger: 301
Størrelse: 77.4 Kb
    ORIGINALEN FRA 1972
    Pio SA-9800 Amp, Pio SA-9800 Amp m/treverk, Pio SA-720 Amp, Pio SA-608 Amp ,2 stk.Pio TX-9800 Tuner,Pio TX-410L Tuner, Pio SG-9800 Equalizer, Pio SG-540 Equalizer,Pio CT-F950 Casett, Pio CT-320 Casett, Pio PD-30 CD, Pio DT-400 Timer, Pio HPM-1100 Høyttalere, Pio CS-656 Høyttalere, Pio PL-550 Platespiller, van Den Hul d102 Hybrid signalkabler, Monster Gold Plated speaker connectors, Soundcare Superspikes + Litt Tandberg - 2 stk Sølvsuper 11, Spolebånd 3300X, Høyttalere Hi-Fi 20.

  14. #14
    Hifi Freak Voff's Avatar
    Ble medlem
    Nov 2006
    Innlegg
    5,357
    Tagget i
    0 Innlegg
    Hvor får man tak i mastertapes?

  15. #15
    Æresmedlem lars_erik's Avatar
    Ble medlem
    Oct 2006
    Sted
    Hades
    Innlegg
    25,658
    Tagget i
    0 Innlegg
    Sitat Sitat fra Voff Se Innlegg
    Hvor får man tak i mastertapes?
    Ja, hvor? Dette må jo være nirvana for oss lydfreaker. Og hvilken båndspiller anbefales?
    Unik trønder. Pen mann. (c) marvealmar

  16. #16
    Hifi Freak E. Largo's Avatar
    Ble medlem
    Feb 2007
    Sted
    Disco Volante
    Innlegg
    3,646
    Tagget i
    0 Innlegg

  17. #17
    Æresmedlem lars_erik's Avatar
    Ble medlem
    Oct 2006
    Sted
    Hades
    Innlegg
    25,658
    Tagget i
    0 Innlegg
    Sitat Sitat fra E. Largo Se Innlegg
    Bare $3000...
    Unik trønder. Pen mann. (c) marvealmar

  18. #18
    Æresmedlem Hardingfele's Avatar
    Ble medlem
    Oct 2014
    Innlegg
    13,117
    Tagget i
    4 Innlegg
    Men dette er ikke master-dubs.

    Holy Grail er opptaksmaster, men disse blir sjelden tilgjengelige.
    Av disse ble det laget kopier: Safety Master(s), Dub-Master(s)

    Safety Master ble oppbevart som forsikring. Dub Masters ble brukt som kilde for kopiering, av f.eks. bånd som dem i auksjonen. De ble også brukt til kutting av vinylversjon.

    Etterhvert som plateselskapene har overført materialet til andre lagringsmedia, har de også begynt å kvitte seg med gamle tape-media, for å spare plass og kostnader. Det er disse som er begynt å bli tilgjengelige på markedet.
    Men man skal vokte seg, siden det er en del lureri på gang, så det gjelder å ha en pålitelig selger.

    Båndene i Beatles-auksjonen er blå kartong utgave, kopiert på bånd av god kvalitet, i høyeste hastighet for kommersielle utgaver på den tiden. Får nok inn noen gode bud.

    De beste kommersielle båndene fra tidlig stereo-tid er 1/4 toms, 2-spors, 7,5 ips. Disse er veldig ettertraktede, og rangeres høyere en 4-spors i samme hastighet og format, fordi det er mer plass til musikkinformasjonen på to spor. Disse 2-sporsbåndene ble overført i 1:1 hastighet, noe som tok lenger tid. Dengang kunne ett slikt bånd av en utgivelse koste opp til hundre dollar. Dette fordi markedet var lite og bestod av kvintessensen av audiofile og musikkinteresserte.

    Massekopiering ble innført, og 3 1/4 ips bånd er uten unntak high-speed kopierte og bør unngås.

    (Enkelte studioteknikere lurte seg til å lage egne kopier fra masters, eller lagde dem for salg til gærne samlere. Slike kan også komme på markedet, men her er det veldig om å være sikker. Enkelte master-dubs kan gå for tusener av dollar.)
    Siste redigert av Hardingfele; 14.04.2015 kl. 18:58.
    ​The truth may be out there, but the lies are all inside your head.

Skrive Tillatelser

  • Du kan ikke starte nye tråder
  • Du kan ikke svare på innlegg
  • Du kan ikke laste opp vedlegg
  • Du kan ikke redigere dine innlegg
  •  


 

Om Hifisentralen

    Hifisentralen er Norges største webside innen high-end hi-fi og musikk, og vi har vært på nett siden år 2001. Velkommen til en god hi-fi diskusjon eller kjøp og salg av utstyr.
   

Følg oss på sosiale medier:

Facebook Twitter RSS Feed