Resultater 1 til 11 av 11
Abonnér på denne tråden
  1. #1
    Hifi Freak E.I.A.'s Avatar
    Ble medlem
    Jul 2004
    Innlegg
    4,569
    Tagget i
    0 Innlegg

    ZZ Top på Hd Tracks

    Kjøpte ZZ Top - The Complete Studio Albums 1970-1990 (2013) [HDTracks 24-192]
    ZZ Top har blitt sluppet i flere variasjoner og remasters , men synes lydkvaliteten på denne var noe av det beste jeg har hørt av gruppa

    her er DR verdiene fra Degüello


    foobar2000 1.2.8 / Dynamic Range Meter 1.1.1
    log date: 2013-08-10 22:08:31
    --------------------------------------------------------------------------------
    Analyzed: ZZ Top / Degüello
    --------------------------------------------------------------------------------
    DR Peak RMS Duration Track
    --------------------------------------------------------------------------------
    DR13 -0.32 dB -15.56 dB 3:25 01-I Thank You
    DR12 -1.54 dB -14.65 dB 2:23 02-She Loves My Automobile
    DR13 -0.27 dB -15.02 dB 4:52 03-I'm Bad, I'm Nationwide
    DR15 -0.24 dB -17.16 dB 4:17 04-A Fool For Your Stockings
    DR14 -0.33 dB -16.03 dB 2:36 05-Manic Mechanic
    DR13 -0.92 dB -15.45 dB 3:09 06-Dust My Broom
    DR13 -1.48 dB -15.84 dB 2:49 07-Lowdown In The Street
    DR13 -0.09 dB -14.59 dB 2:25 08-Hi Fi Mama
    DR14 -0.19 dB -15.86 dB 4:48 09-Cheap Sunglasses
    DR13 -0.74 dB -14.64 dB 3:31 10-Esther Be The One
    --------------------------------------------------------------------------------
    Number of tracks: 10
    Official DR value: DR13
    Samplerate: 192000 Hz
    Channels: 2
    Bits per sample: 24
    Bitrate: 5278 kbps
    Codec: FLAC
    ================================================== ==============================
    Siste redigert av E.I.A.; 17.08.2013 kl. 17:06.

    Lumin D1, Bryston BDA-1, McIntosh Mc275IV, ProAc SM100

  2. #2
    J.J
    Guest
    Men ikke bedre enn vinyl vel.....

  3. #3
    vredensgnag
    Guest
    Har du Eliminator?

  4. #4
    J.J
    Guest
    Hvem spør du ? E.I.A eller meg ?

    Jeg har nylig fått en pent brukt Eliminator på vinyl, uspillt her endog....

  5. #5
    vredensgnag
    Guest
    Jeg spør trådstarter.

  6. #6
    Hifi Freak Roald's Avatar
    Ble medlem
    Jun 2005
    Innlegg
    3,741
    Tagget i
    0 Innlegg
    Har disse tilgang til noe annet enn tilsvarende mastring som finnes på cd eller plukker de ut unntakene fra komprimeringshelvete?
    Dette virker Når mørket senker seg Kom og hør eller aller helst inviter på en lytt til anlegget ditt


    Ja til musikk på blå resept………….

  7. #7
    Hifi Freak Roald's Avatar
    Ble medlem
    Jun 2005
    Innlegg
    3,741
    Tagget i
    0 Innlegg
    Hvordan kjøpe fra denne siden? Selger bare til US får jeg opp
    Dette virker Når mørket senker seg Kom og hør eller aller helst inviter på en lytt til anlegget ditt


    Ja til musikk på blå resept………….

  8. #8
    Hifi Freak E.I.A.'s Avatar
    Ble medlem
    Jul 2004
    Innlegg
    4,569
    Tagget i
    0 Innlegg
    Sitat Sitat fra vredensgnag Se Innlegg
    Har du Eliminator?
    Kjøpte hele samlingen som ligger på HD Tracks inkl Eliminator
    https://www.hdtracks.com/index.php?f...HX603497921096

    foobar2000 1.2.8 / Dynamic Range Meter 1.1.1
    log date: 2013-08-18 19:07:39
    --------------------------------------------------------------------------------
    Analyzed: ZZ Top / Eliminator
    --------------------------------------------------------------------------------
    DR Peak RMS Duration Track
    --------------------------------------------------------------------------------
    DR12 -0.91 dB -14.59 dB 4:04 01-Gimme All Your Lovin'
    DR13 -0.47 dB -14.84 dB 4:03 02-Got Me Under Pressure
    DR13 0.00 dB -14.08 dB 4:18 03-Sharp Dressed Man
    DR13 -1.30 dB -16.65 dB 6:18 04-I Need You Tonight
    DR13 -1.16 dB -15.79 dB 2:55 05-I Got The Six
    DR13 -0.68 dB -15.93 dB 3:35 06-Legs (Edit Version)
    DR14 -3.07 dB -19.56 dB 4:20 07-Thug
    DR15 -1.80 dB -18.60 dB 3:53 08-TV Dinners
    DR13 -2.72 dB -17.32 dB 4:04 09-Dirty Dog
    DR15 -2.28 dB -19.43 dB 3:40 10-If I Could Only Flag Her Down
    DR13 -2.11 dB -16.83 dB 3:16 11-Bad Girl
    --------------------------------------------------------------------------------
    Number of tracks: 11
    Official DR value: DR13
    Samplerate: 192000 Hz
    Channels: 2
    Bits per sample: 24
    Bitrate: 5412 kbps
    Codec: FLAC
    ================================================== ==============================
    Siste redigert av E.I.A.; 18.08.2013 kl. 19:07.

    Lumin D1, Bryston BDA-1, McIntosh Mc275IV, ProAc SM100

  9. #9
    Hifi Freak E.I.A.'s Avatar
    Ble medlem
    Jul 2004
    Innlegg
    4,569
    Tagget i
    0 Innlegg
    Sitat Sitat fra Roald Se Innlegg
    Hvordan kjøpe fra denne siden? Selger bare til US får jeg opp
    Bruk PayPal så funker det

    Lumin D1, Bryston BDA-1, McIntosh Mc275IV, ProAc SM100

  10. #10
    Hifi Freak E.I.A.'s Avatar
    Ble medlem
    Jul 2004
    Innlegg
    4,569
    Tagget i
    0 Innlegg
    Sitat Sitat fra J.J Se Innlegg
    Men ikke bedre enn vinyl vel.....
    Har så dårlig vinylsnurrer så her låter det bedre

    Lumin D1, Bryston BDA-1, McIntosh Mc275IV, ProAc SM100

  11. #11
    Hifi Freak E.I.A.'s Avatar
    Ble medlem
    Jul 2004
    Innlegg
    4,569
    Tagget i
    0 Innlegg
    Sitat Sitat fra Roald Se Innlegg
    Har disse tilgang til noe annet enn tilsvarende mastring som finnes på cd eller plukker de ut unntakene fra komprimeringshelvete?
    De har fått mye pepper (med rette) for dårlig informasjon om både kilde materiell og om hvordan de har remastret det.
    Mye av det som er blitt solgt som highres musikk har hatt dårlig lydkvalitet, men føler at de har tatt seg litt sammen pga mye kritikk.
    Har lastet ned en god del derifra og er ikke førnøyd med allt , men denne versjonen av ZZ Top likte jeg .
    Kjøpte også for litt siden Van Halen samlingen derifra, den var også veldig bra( i forhold til cd'ene ).
    Nå har jo aldri ZZ Top og Van Halen vært blant referanse opptak og regne, men dette var i alle fall et skritt i riktig retning i forhold til remastrede cd versjoner

    Sjekker forumet her om hvordan utgivelsene er .
    http://www.computeraudiophile.com/

    Lumin D1, Bryston BDA-1, McIntosh Mc275IV, ProAc SM100

Skrive Tillatelser

  • Du kan ikke starte nye tråder
  • Du kan ikke svare på innlegg
  • Du kan ikke laste opp vedlegg
  • Du kan ikke redigere dine innlegg
  •  


 

Om Hifisentralen

    Hifisentralen er Norges største webside innen high-end hi-fi og musikk, og vi har vært på nett siden år 2001. Velkommen til en god hi-fi diskusjon eller kjøp og salg av utstyr.
   

Følg oss på sosiale medier:

Facebook Twitter RSS Feed