Resultater 1 til 5 av 5
Abonnér på denne tråden
  1. #1
    Hifi Freak el_mariachi's Avatar
    Ble medlem
    Nov 2002
    Innlegg
    5,437
    Tagget i
    0 Innlegg

    Feil ved ripping, eller?

    Gjorde forsøk på å rippe et par cd'r med Foobar i dag og får da "Converter status report" ved endt ripping som sier at "15 out of 15 tracks converted with minor problems." (Se bilde) Ripper og converterer direkte til .flac



    Hva betyr egentlig dette og har de noen betydning for lydkvaliteten?
    Er ikke akkurat dreven i dette ettersom jeg mest bruker cdspiller.
    Former hellraiser & messageboard pyromaniac.............................

  2. #2
    Hifi Freak el_mariachi's Avatar
    Ble medlem
    Nov 2002
    Innlegg
    5,437
    Tagget i
    0 Innlegg
    Ingen?
    Former hellraiser & messageboard pyromaniac.............................

  3. #3
    Hifi-interessert
    Ble medlem
    Dec 2010
    Innlegg
    62
    Tagget i
    0 Innlegg
    Gjør et søk på Google med "accuraterip status not accurate"
    Et par svar ;
    https://hydrogenaud.io/index.php/topic,106699.0.html
    Partial match with offsets - anything to be worried about? - Computer based HiFi - HiFi WigWam

    Det er nok helt ok. Da jeg rippet mine CD'er så brukte jeg EAC og/eller dBpoweramp. Jeg slo av accuraterip verifikasjonen.
    Fungerte bra og sparte en masse tid pr. rip.
    ------------
    NAD T787, Wyred4Sound DAC-2v2se , Oppo BDP83SE, Denon 3930, Dali Suite 2.8, Komplett Media Senter a10 PC (16GB RAM og 2x4TB HDD), Foobar2000, JRiver MC 24

  4. #4
    Overivrig entusiast Trond_B's Avatar
    Ble medlem
    Aug 2004
    Innlegg
    663
    Tagget i
    0 Innlegg
    Prøv CUETools/CUEripper. Da kan du sjekke om filene er korrekt rippet. Programmet kan også reparere korrupte filer hvis CD'n er i databasen.
    CUETools Download - CUETools wiki

    Ei tilfeldig valgt log fil.

    [CUETools log; Date: 15.04.2017 13.48.19; Version: 2.1.5]
    [CTDB TOCID: 3XPZJX85xdmUKNExmZO.w7IZZY0-] found.
    Track | CTDB Status
    1 | (100/100) Accurately ripped
    2 | (100/100) Accurately ripped
    3 | (100/100) Accurately ripped
    4 | (100/100) Accurately ripped
    5 | (100/100) Accurately ripped
    6 | (100/100) Accurately ripped
    7 | (100/100) Accurately ripped
    8 | (100/100) Accurately ripped
    9 | (100/100) Accurately ripped
    10 | (100/100) Accurately ripped
    11 | (100/100) Accurately ripped
    12 | (100/100) Accurately ripped
    13 | (100/100) Accurately ripped
    14 | (100/100) Accurately ripped
    15 | (100/100) Accurately ripped
    16 | ( 99/100) Accurately ripped
    [AccurateRip ID: 0020992a-0188e122-db0d3910] found.
    Track [ CRC | V2 ] Status
    01 [189609c9|2ab0eac6] (023+041/127) Accurately ripped
    02 [1aacc10c|8e1768fd] (023+042/129) Accurately ripped
    03 [b64445e9|418b5c53] (023+042/129) Accurately ripped
    04 [08803146|d953b8ca] (023+042/129) Accurately ripped
    05 [7308bf76|91e7bd17] (023+042/129) Accurately ripped
    06 [ca10f10a|f9331519] (023+042/129) Accurately ripped
    07 [c9325465|7696a0cf] (023+042/12 Accurately ripped
    08 [0b1ca987|ec13186b] (023+042/129) Accurately ripped
    09 [76fc9d99|155a8f20] (023+042/129) Accurately ripped
    10 [bb6aa47d|1b9c0a9b] (023+042/129) Accurately ripped
    11 [77507d67|f887f5ec] (023+042/12 Accurately ripped
    12 [4418f944|d964f63d] (023+042/12 Accurately ripped
    13 [07b3e8cf|a3294f94] (023+040/127) Accurately ripped
    14 [3d766a33|cf349e4b] (023+039/125) Accurately ripped
    15 [a2e922d7|42605da1] (023+041/127) Accurately ripped
    16 [da7f33b5|aaf57a30] (023+041/127) Accurately ripped
    Offsetted by -647:
    01 [7be6b6a6] (010/127) Accurately ripped
    02 [cdbd073a] (010/129) Accurately ripped
    03 [5febe049] (010/129) Accurately ripped
    04 [2f2dd6d5] (010/129) Accurately ripped
    05 [f2005c1f] (010/129) Accurately ripped
    06 [b8aa1c81] (010/129) Accurately ripped
    07 [4828ce4f] (009/12 Accurately ripped
    08 [0c49e517] (010/129) Accurately ripped
    09 [679953b3] (010/129) Accurately ripped
    10 [24cca46e] (010/129) Accurately ripped
    11 [0c15b802] (010/12 Accurately ripped
    12 [807e258d] (010/12 Accurately ripped
    13 [f02e5315] (010/127) Accurately ripped
    14 [bfd5f375] (010/125) Accurately ripped
    15 [3798ba0f] (010/127) Accurately ripped
    16 [efee2079] (009/127) Accurately ripped
    Offsetted by -625:
    01 [ab96863b] (019/127) Accurately ripped
    02 [b9d690c6] (020/129) Accurately ripped
    03 [4e9c8f25] (020/129) Accurately ripped
    04 [a576b7a7] (020/129) Accurately ripped
    05 [fb5a978c] (020/129) Accurately ripped
    06 [4ed82bf6] (020/129) Accurately ripped
    07 [0f11f094] (020/12 Accurately ripped
    08 [c060e2a6] (020/129) Accurately ripped
    09 [e70d4610] (020/129) Accurately ripped
    10 [df4247b5] (020/129) Accurately ripped
    11 [8cce00c1] (019/12 Accurately ripped
    12 [0702acb1] (019/12 Accurately ripped
    13 [32bc7e05] (020/127) Accurately ripped
    14 [08bebf17] (020/125) Accurately ripped
    15 [5b0b3030] (020/127) Accurately ripped
    16 [e6d96177] (020/127) Accurately ripped
    Offsetted by -1237:
    01 [bb3b5fb9] (000/127) No match (V2 was not tested)
    02 [8a182798] (000/129) No match (V2 was not tested)
    03 [c56f07e6] (000/129) No match (V2 was not tested)
    04 [0a05a64c] (000/129) No match (V2 was not tested)
    05 [fdc12b5c] (000/129) No match (V2 was not tested)
    06 [cbc60e2a] (000/129) No match (V2 was not tested)
    07 [82558ef7] (000/12 No match (V2 was not tested)
    08 [9aeaf6bc] (000/129) No match (V2 was not tested)
    09 [91a70e79] (000/129) No match (V2 was not tested)
    10 [086c7383] (000/129) No match (V2 was not tested)
    11 [d423e6c4] (000/12 No match (V2 was not tested)
    12 [7a8507cf] (000/12 No match (V2 was not tested)
    13 [13a9a080] (000/127) No match (V2 was not tested)
    14 [84f80168] (000/125) No match (V2 was not tested)
    15 [c79dc713] (000/127) No match (V2 was not tested)
    16 [f4ae39b8] (000/127) No match (V2 was not tested)
    Offsetted by -635:
    01 [53c8e76a] (000/127) No match (V2 was not tested)
    02 [7429489f] (000/129) No match (V2 was not tested)
    03 [c2598995] (000/129) No match (V2 was not tested)
    04 [66c5a56f] (000/129) No match (V2 was not tested)
    05 [e3ce49d4] (000/129) No match (V2 was not tested)
    06 [4012d0cf] (000/129) No match (V2 was not tested)
    07 [7468c5fb] (000/12 No match (V2 was not tested)
    08 [5382f1e6] (000/129) No match (V2 was not tested)
    09 [34759111] (000/129) No match (V2 was not tested)
    10 [47bb7d5c] (000/129) No match (V2 was not tested)
    11 [be1d0af2] (000/12 No match (V2 was not tested)
    12 [e4b0d377] (000/12 No match (V2 was not tested)
    13 [b0ed36bc] (000/127) No match (V2 was not tested)
    14 [d0259323] (000/125) No match (V2 was not tested)
    15 [d6041f73] (000/127) No match (V2 was not tested)
    16 [49e146f1] (000/127) No match (V2 was not tested)

    Track Peak [ CRC32 ] [W/O NULL] [ LOG ]
    -- 99,8 [3CB64513] [B0F45F83] CRC32
    01 94,6 [E34A20B2] [8FEF585D]
    02 90,2 [551F2CD8] [C79A2697]
    03 88,0 [8071AC3A] [807243D9]
    04 88,5 [F445E3CC] [E333A63E]
    05 91,0 [536BFAD9] [66491326]
    06 93,5 [E54F8430] [532657D6]
    07 95,6 [14155221] [8BED68CC]
    08 93,2 [C87030E0] [D9D3E07F]
    09 91,3 [170635B6] [90658715]
    10 92,9 [410D4136] [6EB55B0A]
    11 95,4 [A170D485] [8C4A273A]
    12 84,5 [16F851DC] [044EDAFA]
    13 99,8 [D1CCCD60] [61FF7BA7]
    14 99,6 [19B2E5AF] [F20D0DD3]
    15 87,7 [317B0A61] [BA0AF02E]
    16 82,9 [9608B818] [E15A245E]
    ​Hi-Fi: Accuphase E-460 | LINN Akurate DS/1 | PMC twenty.26/22/C | REL R-528
    Head-Fi: SONY TA-ZH1ES | iFi xDSD | SONY MDR-Z1R | Bowers & Wilkins P9 Signature | AudioQuest DragonFly Red | Sony XBA-N3AP | Bowers & Wilkins P7 Wireless
    AV: SONY Bravia KD-65AF9 | DENON AVC-X8500H | SONY UBP-X800

  5. #5
    Hifi Freak Kanutus's Avatar
    Ble medlem
    Nov 2014
    Sted
    Nesodden
    Innlegg
    1,909
    Tagget i
    0 Innlegg
    Wow, reparasjon av ikke-korrekte filer er jo veldig bra! Dessverre funker programmet kun på windows, ser jeg ... Men, fint å vite at det finnes slik teknologi uansett ...
    LM518IA • LM-H222 • TD150MKII • TD160MKII • TD126MKIII • DIY-streamer-DDDAC • Synology
    Anbefaler www.bandcamp.com for kjøp av digital musikk.

Skrive Tillatelser

  • Du kan ikke starte nye tråder
  • Du kan ikke svare på innlegg
  • Du kan ikke laste opp vedlegg
  • Du kan ikke redigere dine innlegg
  •  


 

Om Hifisentralen

    Hifisentralen er Norges største webside innen high-end hi-fi og musikk, og vi har vært på nett siden år 2001. Velkommen til en god hi-fi diskusjon eller kjøp og salg av utstyr.
   

Følg oss på sosiale medier:

Facebook Twitter RSS Feed