Resultater 1 til 8 av 8
Abonnér på denne tråden
  1. #1
    Hifi-entusiast
    Ble medlem
    Jul 2009
    Sted
    Vest-Agder/Søgne
    Innlegg
    352
    Tagget i
    0 Innlegg

    Spørsmål EAC: CD ripping. ikke Accurate, skurring

    Cannot be verified as accurate
    Ok, har satt i gang med ripping av cd samlinga, så fikk jeg nå på en av platene, to tracks "Cannot be verified as accurate".
    Hva kan jeg gjøre med dette?

    På det ene tracket "track 3" hører jeg skurring som ikke skal være der ved rund 03:13-03:26, på track "16" hører jeg ikke noe tydelig feil

    Er noen riper i CD-en, men bare noen smått overfladisk, trodde ikke dette skulle ha noe å si.
    Jeg regner vel med at det er ripene likevel som er problemet her, hvordan kan det fikses slik at jeg kan rippe riktig?
    AEC har stått i en 40-50 min og bare prøvd disse to tracksene, så regner med det som er mulig å gjøre med software er gjort.

    Track 3
    Filename E:\Lyd\Rippet\Armand Van Helden\[2001-FLAC-VBR] Gandhi Kahn\03 - I Can Smell U.wav
    Suspicious position 0:03:07 - 0:03:24
    Peak level 100.0 %
    Extraction speed 0.5 X
    Track quality 91.3 %
    Test CRC 5C867C77
    Copy CRC 6E488AD3
    Cannot be verified as accurate (confidence 3) [18491683], AccurateRip returned [81E1DF83] (AR v2)
    Copy finished

    Track 16
    Filename E:\Lyd\Rippet\Armand Van Helden\[2001-FLAC-VBR] Gandhi Kahn\16 - Heed The White Seed.wav
    Suspicious position 0:02:05 - 0:02:1
    Peak level 100.0 %
    Extraction speed 2.5 X
    Track quality 94.8 %
    Test CRC 98C8E1C0
    Copy CRC BD4872A0
    Cannot be verified as accurate (confidence 3) [822572D0], AccurateRip returned [E5981F6F] (AR v2)
    Copy finished
    - Evelen

  2. #2
    Hifi-interessert
    Ble medlem
    Jul 2008
    Innlegg
    53
    Tagget i
    0 Innlegg
    Hei,

    det er (minst) en software option igjen. Siden du benytter Accuraterip er du kanskje kjent med 'utvidelsen' av denne kalt CTDB. (Se: CUETools Database - CUETools wiki). Er du heldig er det noen som har rippet din cd tidligere og lagt opp litt feilrettingsdata slik at de småfeilene som du har kan rettes opp automatisk. Nå skal det sies at prosentverdiene på track quality i din logg er lave i forhold til de 100% man vil ha. Men sikkert verd et forsøk med cue tools.
    Windows Server x2
    Gaming PC | Philips BDP9600 | PS3 | Squeezeboxes x4
    McIntosh C48
    Mcintosh MC402
    Dynaudio Confidence C2

  3. #3
    Hifi-entusiast
    Ble medlem
    Jul 2009
    Sted
    Vest-Agder/Søgne
    Innlegg
    352
    Tagget i
    0 Innlegg
    Hei.
    Takk for tipset.

    Jeg er ganske ny i EAC, startet faktisk for noen dager sidne, men skal prøve den utvidelsen.

    Har dog et annet spørsmål, jeg ser at ikke alle rippene mine er 100%, men tilnermet 100%, får "Accurately ripped" og "copy OK".
    Vil dette si at denne er en "perfekt" kopi av orginalen, altså lydmessig?

    eks:


    Track 5
    Filename E:\Lyd\Rippet\Armand Van Helden\[2007-FLAC-VBR] Ghetto Blaster\05 - Playing House.wav
    Peak level 100.0 %
    Extraction speed 8.5 X
    Track quality 99.9 %
    Test CRC 104A1980
    Copy CRC 104A1980
    Accurately ripped (confidence 6) [7704BA41] (AR v1)
    Copy OK

    Og hva med når jeg får "Track not present in AccurateRip database"?

    Track 28
    Filename E:\Lyd\Rippet\Neophyte\[2005-FLAC-VBR] 13 Jaar Terreur De Megamix\28 - Neophyte - Rotterdam Gabber.wav
    Peak level 98.8 %
    Extraction speed 8.5 X
    Track quality 99.6 %
    Test CRC C839F90D
    Copy CRC C839F90D
    Track not present in AccurateRip database
    Copy OK
    Siste redigert av Evelen; 18.11.2012 kl. 11:50.
    - Evelen

  4. #4
    Hifi-interessert
    Ble medlem
    Jul 2008
    Innlegg
    53
    Tagget i
    0 Innlegg
    Reglene jeg jobber etter der er: om Accuraterip sier OK så er alt greit. Om den er 'not present' kjører jeg som du har gjort en ekstra rip test og om den får samme resultat (test crc og copy crc) er det også greit. I loggen i din første post ser du at rip og test avlesningen er forskjellige. Det er en omtrentlig en garanti på at det er noe galt med avlesningen.
    Windows Server x2
    Gaming PC | Philips BDP9600 | PS3 | Squeezeboxes x4
    McIntosh C48
    Mcintosh MC402
    Dynaudio Confidence C2

  5. #5
    Hifi-entusiast
    Ble medlem
    Jul 2009
    Sted
    Vest-Agder/Søgne
    Innlegg
    352
    Tagget i
    0 Innlegg
    Tak for info. Et annet spørsmå, jeg ser dette fremkommer i loggene mine:

    Read mode : Secure
    Utilize accurate stream : Yes
    Defeat audio cache : No
    Make use of C2 pointers : Yes

    Jeg ser det frarådes å bruke C2 pointers mange plasser, kjenner noen til om dette er tilfellet? Hva er det egentlig som er greia med dette? Bør jeg rippe hele samlingen på nytt og deaktivere denne?

  6. #6
    Hifi-entusiast
    Ble medlem
    Jul 2009
    Sted
    Vest-Agder/Søgne
    Innlegg
    352
    Tagget i
    0 Innlegg
    Ok, da har jeg startet reripping med Defeat audio cache : Yes, Make use of C2 pointers: No
    Får håpe jeg ikke finner noen andre feil når jeg er ferdig med halve samlinga :P

  7. #7
    Hifi-entusiast
    Ble medlem
    Jul 2009
    Sted
    Vest-Agder/Søgne
    Innlegg
    352
    Tagget i
    0 Innlegg
    ca 120 cd-er rippet, ca 7 plater med feil.
    forslag til flere tilltak?
    litt kjipt med feil på noen av platene :P
    - Evelen

  8. #8
    Overivrig entusiast Trond_B's Avatar
    Ble medlem
    Aug 2004
    Innlegg
    680
    Tagget i
    0 Innlegg
    Torget
    2
    Hvis platene er litt ripete så er det lett å få opp ikke korrekt rippet. Last ned CUETools og test de med programmet. Hvis de ligger i CUETools Database (CTDB) så er det mulig å reparere de med CUETools. Ligger etterhvert veldig mange album i databasen.

    Navn:      repair.jpg
Visninger: 144
Størrelse: 102.8 Kb
    ​Hi-Fi: Accuphase E-460 | LINN Akurate DS Katalyst | PMC twenty.26, 22 & C | KEF LSX | REL R-528
    Head-Fi: SONY TA-ZH1ES | iFi xDSD | SONY MDR-Z1R | Bowers & Wilkins P9 Signature | AudioQuest DragonFly Cobalt | Sony XBA-N3AP | Bowers & Wilkins P7 Wireless
    AV: SONY Bravia KD-65AF9 | DENON AVC-X8500H | Panasonic DP-UB9000 | Egreat A11

Skrive Tillatelser

  • Du kan ikke starte nye tråder
  • Du kan ikke svare på innlegg
  • Du kan ikke laste opp vedlegg
  • Du kan ikke redigere dine innlegg
  •  


 

Om Hifisentralen

    Hifisentralen er Norges største webside innen high-end hi-fi og musikk, og vi har vært på nett siden år 2001. Velkommen til en god hi-fi diskusjon eller kjøp og salg av utstyr.
   

Følg oss på sosiale medier:

Facebook Twitter RSS Feed