Resultater 1 til 4 av 4
Abonnér på denne tråden
  1. #1
    Overivrig entusiast nikosidis's Avatar
    Ble medlem
    Mar 2007
    Innlegg
    750
    Tagget i
    0 Innlegg
    Album
    1

    MUSE 2nd law 24bit

    Lastet ned denne fra MUSE sin hjemmeside i dag. Kostet £12 noe som jeg anser som veldig ok. Filene er i FLAC 24bit 96Khz.

    Jeg har og har hatt en del SACDer og DVD-audio plater. Det er vel ingen hemmelighet at mye som ble gitt ut på disse formatene ikke er annen enn oppsamplet CD kvalitet o.l

    Det er meget hyggelig at store band som MUSE nå legger ut album i studio kvalitet som nedlasting fra deres hjemmeside. Dette er selvfølgelig ekte greier og jeg kan love dere at det høres!!

    Sinnsykt bra lyd!! anbefales hvis du liker dette bandet.
    Auralic ARK mx+, DAC. Ming Da MC-3R Nordic mk II, Preamp, Theta Interpid 5-Kanals, Forsterker, Yamaha CX-A5000, Prosessor, Rega planar 3, Platespiller, Ortofon quintet blue, Pickup - Rega Fono MC, Riia, Usher 718 DMD, Høytaller Front, Earthquake MKVI-15 Sub. Usher 616 BE, Høytaller Senter, B&W cdm1nt, Høytaller surround, Sony HW50ES, Prosjektor (kalibrert av Gorm), Isotech strømfilter. Wireworld Aurora, Strøm. Nordost, Signal. Van Damme, Høytaller.

  2. #2
    Moderator bambadoo's Avatar
    Ble medlem
    Oct 2002
    Sted
    Lørenskog
    Innlegg
    18,349
    Tagget i
    6 Innlegg
    Her er en liten analyse av den. MAO helt greit... Standard versjonen låter dritt ihvertfall. Fint at de legger ut slikt.

    Skal foresten på konsert i Amsterdam 4 Juni...


    foobar2000 1.1.15 / Dynamic Range Meter 1.1.1


    log date: 2012-10-01 21:27:46

    --------------------------------------------------------------------------------


    Analyzed: Muse / The 2nd Law


    --------------------------------------------------------------------------------






    DR Peak RMS Duration Track


    --------------------------------------------------------------------------------


    DR9 -0.20 dB -11.78 dB 4:55 01-Supremacy


    DR9 -0.20 dB -11.63 dB 4:40 02-Madness


    DR9 -0.20 dB -11.02 dB 3:04 03-Panic Station


    DR10 -0.93 dB -16.60 dB 0:58 04-Prelude


    DR8 -0.20 dB -10.66 dB 4:17 05-Survival


    DR8 -0.29 dB -10.79 dB 3:51 06-Follow Me


    DR8 -0.36 dB -10.90 dB 4:23 07-Animals


    DR9 -0.20 dB -12.28 dB 5:47 08-Explorers


    DR10 -0.20 dB -12.72 dB 4:40 09-Big Freeze


    DR9 -0.38 dB -12.31 dB 5:09 10-Save Me


    DR8 -0.20 dB -8.87 dB 3:03 11-Liquid State


    DR9 -0.21 dB -12.57 dB 3:48 12-The 2nd Law: Unsustainable


    DR9 -0.20 dB -13.60 dB 5:00 13-The 2nd Law: Isolated System


    --------------------------------------------------------------------------------






    Number of tracks: 13


    Official DR value: DR9






    Samplerate: 96000 Hz


    Channels: 2


    Bits per sample: 24


    Bitrate: 2553 kbps


    Codec: FLAC
    Siste redigert av bambadoo; 06.01.2013 kl. 00:42.

  3. #3
    Moderator bambadoo's Avatar
    Ble medlem
    Oct 2002
    Sted
    Lørenskog
    Innlegg
    18,349
    Tagget i
    6 Innlegg
    Her er forøvrig standard versjon. Tok nettopp en liten DR analyse
    foobar2000 1.2.1 beta 1 / Dynamic Range Meter 1.1.1
    log date: 2013-01-06 00:37:39


    --------------------------------------------------------------------------------
    Analyzed: Muse / The 2nd Law
    --------------------------------------------------------------------------------


    DR Peak RMS Duration Track
    --------------------------------------------------------------------------------
    DR5 0.00 dB -7.95 dB 4:55 01-Supremacy
    DR5 0.00 dB -7.43 dB 4:40 02-Madness
    DR6 0.00 dB -7.25 dB 3:04 03-Panic Station
    DR7 -0.03 dB -11.65 dB 0:58 04-Prelude
    DR5 0.00 dB -6.90 dB 4:17 05-Survival
    DR5 0.00 dB -7.21 dB 3:51 06-Follow Me
    DR5 0.00 dB -7.05 dB 4:23 07-Animals
    DR6 0.00 dB -8.42 dB 5:47 08-Explorers
    DR6 0.00 dB -8.46 dB 4:40 09-Big Freeze
    DR6 0.00 dB -8.50 dB 5:09 10-Save Me
    DR4 0.00 dB -5.25 dB 3:03 11-Liquid State
    DR6 0.00 dB -8.76 dB 3:48 12-The 2nd Law: Unsustainable
    DR5 0.00 dB -9.57 dB 5:00 13-The 2nd Law: Isolated System
    --------------------------------------------------------------------------------


    Number of tracks: 13
    Official DR value: DR5


    Samplerate: 44100 Hz
    Channels: 2
    Bits per sample: 16
    Bitrate: 720 kbps
    Codec: FLAC
    ================================================== ==============================

  4. #4
    Overivrig entusiast nikosidis's Avatar
    Ble medlem
    Mar 2007
    Innlegg
    750
    Tagget i
    0 Innlegg
    Album
    1
    Takk for det. Nå skjønner ikke jeg helt hva dette betyr, men ser klart at det er mye mer dynamisk range i 24 bit versjonen. Når du sier at standard versjonen låter ræva så kan vi vel konkludere med at 24 bit helt klart gir bedre lyd enn 16 bit. Etter at jeg fikk platespiller i hus for noen mnd siden er jeg heller ikke i tvil om CDens begrensning, selv om jeg helt klart ser LPens begrensning også, særlig når det kommer til knitring osv. Jeg håper vi får se mye 24 bit i fremtiden
    Auralic ARK mx+, DAC. Ming Da MC-3R Nordic mk II, Preamp, Theta Interpid 5-Kanals, Forsterker, Yamaha CX-A5000, Prosessor, Rega planar 3, Platespiller, Ortofon quintet blue, Pickup - Rega Fono MC, Riia, Usher 718 DMD, Høytaller Front, Earthquake MKVI-15 Sub. Usher 616 BE, Høytaller Senter, B&W cdm1nt, Høytaller surround, Sony HW50ES, Prosjektor (kalibrert av Gorm), Isotech strømfilter. Wireworld Aurora, Strøm. Nordost, Signal. Van Damme, Høytaller.

Skrive Tillatelser

  • Du kan ikke starte nye tråder
  • Du kan ikke svare på innlegg
  • Du kan ikke laste opp vedlegg
  • Du kan ikke redigere dine innlegg
  •  


 

Om Hifisentralen

    Hifisentralen er Norges største webside innen high-end hi-fi og musikk, og vi har vært på nett siden år 2001. Velkommen til en god hi-fi diskusjon eller kjøp og salg av utstyr.
   

Følg oss på sosiale medier:

Facebook Twitter RSS Feed